Star Wars Rebels S02E02 Relics of the Old Republic 1080P WEB-DL DD5 1 H 264

seeders: 3
leechers: 0
updated:
Added by jmanwf20.42K in TV
Torrent verified. Downloaded 6,258 times.

DownloadFast Safe Anonymous
movies, software, shows...
  • View all Star Wars Rebels episodes
  • Episode title: The Lost Commanders
  • Episode: S02E02
  • Air date: 14 October 2015
  • IMDb link: 2930604
  • TVmaze link: Star Wars Rebels
  • Original run: 01 October 2014 — Present
  • Summary:

    A brave and clever ragtag starship crew stands up against the evil Empire as it tightens its grip on the galaxy and hunts down the last of the Jedi Knights.

    Written by thePiratePimp73.24K Last edited by TheCheetah, 1 month ago
Available in versions: 1080p720p480pHDTVWEBRipx265
Star Wars Rebels S02E02 Relics of the Old Republic 1080P WEB-DL DD5 1 H 264 (Size: 919.17 MB)
  Star Wars Rebels S02E02 Relics of the Old Republic.mp4 919.15 MB
  Star Wars Rebels S02E02 Relics of the Old Republic.srt 21.48 KB

Description

Ezra and the crew begin to develop friendships with Captain Rex and his colleagues, prompting them to work together against an attack by Agent Kallus.



Video
ID : 2
Format : AVC
Format/Info : Advanced Video Codec
Format profile : [email protected]
Format settings, CABAC : Yes
Format settings, ReFrames : 4 frames
Codec ID : avc1
Codec ID/Info : Advanced Video Coding
Duration : 22mn 7s
Bit rate : 5 293 Kbps
Width : 1 920 pixels
Height : 1 080 pixels
Display aspect ratio : 16:9
Frame rate mode : Constant
Frame rate : 23.976 fps
Color space : YUV
Chroma subsampling : 4:2:0
Bit depth : 8 bits
Scan type : Progressive
Bits/(Pixel*Frame) : 0.106
Stream size : 837 MiB (91%)
Language : English
Encoded date : UTC 2015-10-22 08:28:16
Tagged date : UTC 2015-10-22 08:29:45
Color range : Limited
Color primaries : BT.709
Transfer characteristics : BT.709
Matrix coefficients : BT.709

Audio #1
ID : 1
Format : AAC
Format/Info : Advanced Audio Codec
Format profile : LC
Codec ID : 40
Duration : 22mn 7s
Bit rate mode : Variable
Bit rate : 128 Kbps
Maximum bit rate : 208 Kbps
Channel(s) : 2 channels
Channel positions : Front: L R
Sampling rate : 48.0 KHz
Compression mode : Lossy
Stream size : 20.3 MiB (2%)
Language : English
Encoded date : UTC 2015-10-22 08:28:16
Tagged date : UTC 2015-10-22 08:29:45

Audio #2
ID : 3
Format : AC-3
Format/Info : Audio Coding 3
Mode extension : CM (complete main)
Format settings, Endianness : Big
Codec ID : ac-3
Duration : 22mn 7s
Bit rate mode : Constant
Bit rate : 384 Kbps
Channel(s) : 6 channels
Channel positions : Front: L C R, Side: L R, LFE
Sampling rate : 48.0 KHz
Bit depth : 16 bits
Compression mode : Lossy
Stream size : 60.8 MiB (7%)
Language : English
Encoded date : UTC 2015-10-22 08:28:16
Tagged date : UTC 2015-10-22 08:29:45

Text
ID : 4-CC1
Format : EIA-608
Muxing mode : Final Cut
Codec ID : c608
Duration : 21mn 29s
Bit rate mode : Constant
Stream size : 0.00 Byte (0%)
Language : English
Encoded date : UTC 2015-10-22 08:28:16
Tagged date : UTC 2015-10-22 08:28:18




Related Torrents

torrent name size files age seed leech

Sharing Widget


Download torrent
919.17 MB
seeders:3
leechers:0
Star Wars Rebels S02E02 Relics of the Old Republic 1080P WEB-DL DD5 1 H 264



To share this torrent use the code below and insert it into comments, status messages, forum posts or your signature.

Torrent: Star Wars Rebels S02E02 Reli...lic 1080P WEB-DL DD5 1 H 264

Trackers

tracker name
udp://tracker.openbittorrent.com:80/announce
udp://tracker.publicbt.com:80/announce
udp://tracker.istole.it:80/announce
udp://coppersurfer.tk:6969/announce
udp://open.demonii.com:1337/announce
udp://12.rarbg.me:80/announce
udp://glotorrents.pw:6969/announce
udp://tracker4.piratux.com:6969/announce
µTorrent compatible trackers list

Locations

name
KickassTorrents
Torrent hash: 970C224C4F063B7FD17055214159BFC9BD1E6BA4

Uploader Comments

1
jmanwf20.42K
Uploader
I will be uploading dool still don't worry the weeks worth of episodes will be up by Saturday
3
jmanwf20.42K
Uploader
Okay folks just to clarify The Siege of Lothal is actually classifyed as a film and not Part of season 2 this is actually Episode 2 of Season 2


Source: http://itunes.apple.com/us/tv-show/id1042728340

Last edited by jmanwf, 9 months ago

All Comments

audio
10/10
video
10/10
please, leave only comments related to that torrent
Sign In

audio: 10video: 10
You are the BEST!!
audio: 10video: 10
EIther way with the labeling, THANKS for the 1080p upload!
I will be uploading dool still don't worry the weeks worth of episodes will be up by Saturday
audio: 10video: 10
Nice mate just awesome 1080p is the best quality there is and like always u doing great work.So thanks for the info and have a wonderful day.Btw what about DOOL Wednesdays are u gonna upload it later here or tomorrow both of the episodes.Bless u my good friend.coolroflbiggrinlolsmile
Okay folks just to clarify The Siege of Lothal is actually classifyed as a film and not Part of season 2 this is actually Episode 2 of Season 2


Source: http://itunes.apple.com/us/tv-show/id1042728340

Last edited by jmanwf, 9 months ago

Comment is deleted
Ill stick to what it says on itunes very confusing i know
Actually not really. Siege of Lothal is considered Episodes 1-2 of Season 2. So technically this is Ep. 4.


User Opinions

mlljones12.54K, little D10.5K, torrentlord7521, carlamatic5145, T8003711, Quadra3685, Logandros2959, sgtslaughter2113, Sheolraver1258, Fujiz572 ... And 35 more
lauritagtz1044
Report a bug Open chat